Популярная советская песня

Регистрация | Забытый пароль | Участники форума [863] | Справка |

» Добро пожаловать, Гость: Войти

     ФОРУМ
     Дискографии
         Серийные издания фирмы Мелодия.


    Несколько страниц [ 1 2 # ]
Модераторы: Mikhail, Andrej Sh
  Для печати Переход к теме
<< Назад Вперед >>
Andrey 16 фев. 2006 17:44
А вот ещё "В мире песен"
"Танго"

Aleksandr 18 марта 2007 16:07
Хотел бы скачать Нунцио Галло "Вернись ко мне" и "Заветная серенада", это только пока, со временем я много чего хочу скачать из старых пластинок

densen2007 22 авг. 2007 16:45

"Музыкальный калейдоскоп (9-я серия) 33Д-23003 ГОСТ 5289-68"

MP3 225 кбпс потреково
http://tinyurl.com/22myed
27 мбайт

начало CUE
------------------------
TITLE "Музыкальный калейдоскоп (9-я серия) 33Д-23003 ГОСТ 5289-68"

FILE "музыкальный калейдоскоп 9-я серия 33Д-23003-1644.ape" WAVE

TRACK 01 AUDIO
TITLE "Алло, Долли (Херман, Лилиберт)"
PERFORMER "Оркестр под упр. Джери Уилтона"
INDEX 01 00:00:00

TRACK 02 AUDIO
TITLE "Луи"
PERFORMER "Лили Иванова"
INDEX 01 02:42:27

TRACK 03 AUDIO
TITLE "Воскресение (Х.Брусевиц)"
PERFORMER "Оркестр под упр. Берта Кемпферта"
INDEX 01 05:14:39

TRACK 04 AUDIO
TITLE "Детство ушло (Х.Хоузер)"
PERFORMER "Глен Кембел"
INDEX 01 08:06:47

TRACK 05 AUDIO
TITLE "На балу (Верде-Канфора)"
PERFORMER "Рита Павоне"
INDEX 01 11:16:35

TRACK 06 AUDIO
TITLE "Всегда вдвоем (И.Петренко)"
PERFORMER "Орк. под упр.Вадима Людвиковского"
INDEX 01 13:40:08

TRACK 07 AUDIO
TITLE "Смешная история (С.Адамо)"
PERFORMER "Сальваторе Адамо"
INDEX 01 16:15:35

TRACK 08 AUDIO
TITLE "Моя Звезда (С.Асаму)"
PERFORMER "Ито Юкари"
INDEX 01 19:18:74

TRACK 09 AUDIO
TITLE "Печальная Лу (Э.Семпсон)"
PERFORMER "Орк. под упр. Бенни Гудмана"
INDEX 01 22:45:34

TRACK 10 AUDIO
TITLE "Любимый учитель (Лубинэ)"
PERFORMER "Дорис Дей"
INDEX 01 25:43:33



Переход к теме
<< Назад Вперед >>
Несколько страниц [ 1 2 # ]